#TITLE:3254 Techno Party;
#SUBTITLE:;
#ARTIST:Audition;
#TITLETRANSLIT:;
#SUBTITLETRANSLIT:;
#ARTISTTRANSLIT:;
#CREDIT:;
#BANNER:;
#BACKGROUND:;
#LYRICSPATH:;
#CDTITLE:;
#MUSIC:3254.mp3;
#OFFSET:-0.224;
#SAMPLESTART:45.434;
#SAMPLELENGTH:28.732;
#SELECTABLE:YES;
#DISPLAYBPM:142.000;
#BPMS:0.000=142.000;
#STOPS:;
#BGCHANGES:;
// cache tags:
#FIRSTBEAT:27.000;
#LASTBEAT:659.000;
#SONGFILENAME:Songs/Super Dancer Online mania/3254 Techno Party 2/3254.sm;
#HASMUSIC:1;
#HASBANNER:0;
#MUSICLENGTH:281.712;
// end cache tags

//---------------techno-single8 - ----------------
#NOTES:
     techno-single8:
     :
     Hard:
     5:
     0.702,0.906,0.000,0.000,0.566,1385.000,0.000,0.000,156.000,0.000:
00000000
00000000
00000000
00000000
,
00000000
00000000
00000000
00000000
,
00000000
00000000
00000000
00000000
,
00000000
00000000
00000000
00000000
,
00000000
00000000
00000000
00000000
,
00000000
00000000
00000000
00000000
,
00000000
00000000
00000000
00000000
00000000
00000000
M000000M
01000000
,
00100000
00000000
00000000
00000100
00001000
00000000
00000000
00010000
,
00000100
00000000
00000000
00000010
00100000
00000000
M000000M
00100000
,
00010000
00000000
00000000
00000100
00010000
00000000
00001000
00000000
,
00100000
00000000
00000010
00000100
00001000
00010000
M000000M
00100000
,
00010000
00000000
00000100
00010000
00100000
00000000
00000100
00010000
,
00100000
00000000
00000100
00000100
00010000
00000010
M000000M
00010000
,
01000000
00000000
00010000
00100000
00100000
00000000
00010000
00100000
,
00010000
00000000
00000100
00010000
00001000
00000100
M000000M
00100000
,
00010000
00000000
00000010
00000100
00100000
00000000
00001000
00010000
,
01000000
00000000
00000100
00100000
00001000
00000010
M000000M
00010000
,
00001000
00000000
00000100
00100000
00000010
00000000
00000100
00000000
,
00010000
00000000
00001000
01000000
00100000
00000100
M000000M
00000100
,
00010000
00001000
00100000
00000010
00000100
00010000
00001000
01000000
,
00000100
00100000
00001000
00010000
00000010
00000100
M000000M
00010000
,
00000100
00001000
00010000
00000010
00000100
01000000
00001000
00100000
,
00000100
00010000
00000100
00000010
00001000
00000100
M000000M
00000100
,
00001000
00010000
00000100
00100000
00000010
00010000
00000100
00001000
,
00100000
00000100
01000000
00001000
00100000
00000100
M000000M
00000010
,
00010000
00000000
00000100
00000000
01000000
00000000
00001000
00000000
00100000
00000000
01000000
00000000
00000100
01000000
00001000
00100000
,
00000100
01000000
00001000
00100000
00000100
01000000
00001000
00100000
00000100
01000000
00001000
00100000
M000000M
00000010
00010000
00000100
,
00100000
00001000
01000000
00000100
00100000
00000010
00010000
00000100
00100000
00001000
01000000
00000000
00001000
00001000
00010000
00010000
,
00000010
00000010
01000000
01000000
00001000
00010000
00000010
01000000
00001000
00010000
00000010
00000000
M000000M
00000010
00010000
00000010
,
00010000
00001000
01000000
00001000
01000000
00000100
00010000
00000100
00010000
00001000
00100000
00000000
00000010
01000000
00000100
00100000
,
00001000
00010000
00000100
00100000
00000010
00000000
00000000
00000000
00001000
00000000
00010000
00000000
M000000M
00100000
00001000
00100000
,
00000100
00100000
00000010
00100000
00000100
00100000
00001000
00100000
00000100
00100000
00000010
00000000
00000100
01000000
00000100
00100000
,
00000100
00010000
00000100
00100000
00000100
01000000
00000100
00100000
00000100
00010000
00000100
00000000
M000000M
00010000
00001000
00010000
,
00100000
00010000
01000000
00010000
00100000
00010000
00001000
00010000
00000100
00010000
00000010
00000000
00001000
00000000
00000000
00000000
,
01000000
00000000
00000000
00000000
00010000
00000000
00100000
00000000
00000010
00000000
00000100
00000000
M000000M
01000000
00100000
01000000
,
00010000
01000000
00001000
01000000
00000100
01000000
00000010
01000000
00000100
01000000
00001000
00000000
00001000
00010000
00001000
00100000
,
00001000
01000000
00001000
00100000
00001000
00010000
00001000
00000100
00001000
00000010
00001000
00000000
M000000M
00000010
00000100
00000010
,
00001000
00000010
00010000
00000010
00100000
00000010
01000000
00000010
00100000
00000010
00010000
00000000
00010000
00000100
00010000
00001000
,
00010000
00100000
00010000
01000000
00010000
00000000
00000000
00000000
00100000
00000000
00000100
00000000
M000000M
00000010
00010000
00000010
,
00010000
00000010
00010000
00000010
00010000
00000010
00010000
00000010
00010000
00000010
00010000
00000000
01000000
00001000
01000000
00001000
,
01000000
00001000
01000000
00001000
01000000
00001000
01000000
00001000
01000000
00001000
01000000
00000000
M000000M
00000000
00000000
00000000
,
00100000
00000000
00000000
00000000
00000100
00000000
00010000
00000000
00000010
00000000
01000000
00000000
00100000
00000100
00100000
00000100
,
01000000
00000010
01000000
00000010
00010000
00001000
00010000
00001000
00100000
00000100
00100000
00000100
00100000
00000000
00000000
00000000
,
00000000
00000000
00000000
00000000
00000000
00000000
M000000M
00000100
,
00010000
01000000
00000010
00000010
00000000
00000100
00000000
00100000
,
00001000
00010000
01000000
00100000
00000000
00000010
M000000M
00000100
,
00001000
01000000
00000100
00000100
00000000
00001000
00000000
00100000
,
00010000
00000010
00000100
00000100
01000000
00001000
M000000M
00000100
,
00100000
00001000
01000000
00001000
00000000
00000010
00000000
00000100
,
00010000
00001000
01000000
01000000
00000000
00000100
M000000M
00100000
,
00000100
00010000
00000010
00001000
00000000
00000100
00000000
01000000
,
00100000
00000100
00010000
00000010
00000100
00000100
M000000M
00000100
,
00010000
00001000
00100000
00000100
00000000
00000100
00000000
00010000
,
00001000
00000010
00000010
00000100
00000000
00001000
M000000M
00100000
,
00000100
00010000
00001000
00001000
00000000
00100000
00000000
00000100
,
01000000
00000010
00100000
00000100
00001000
00000100
M000000M
00000100
,
00000010
00000100
00001000
00000100
00000000
00001000
00000000
01000000
,
00100000
00000100
00010000
00000100
00000000
00000100
M000000M
00000010
,
00001000
00000100
00001000
00010000
00000000
00000010
00000000
00000100
,
00001000
01000000
00000100
00100000
00000100
00000100
M000000M
00000100
,
00010000
00001000
00000100
00000100
00000000
00001000
00000000
00100000
,
00000010
00010000
00000100
00000100
00000000
00001000
M000000M
00000100
,
00010000
00001000
01000000
00000010
00000000
00000100
00000000
00001000
,
00000100
00010000
00001000
00100000
00010000
00100000
M000000M
00000100
,
01000000
00001000
00100000
00100000
00000000
00000100
00000000
00010000
,
00000010
00000100
00001000
00001000
00000000
00010000
M000000M
00010000
,
00000100
00100000
00001000
00001000
00000000
00010000
00000000
00000010
,
01000000
00000100
00001000
00100000
00010000
00100000
M000000M
00010000
,
00000100
00001000
00100000
00000010
00000000
00000100
00000000
00001000
,
00010000
01000000
00000100
00100000
00000000
00001000
M000000M
00000100
,
00100000
00000100
00010000
00000100
00000000
00001000
00000000
00001000
,
00000100
00010000
00001000
01000000
00000010
00100000
M000000M
00000100
,
00010000
00001000
00001000
00000100
00000000
00001000
00000000
01000000
,
00000010
00000010
00000100
00001000
00000000
00010000
M000000M
00000100
,
00100000
00001000
00010000
00010000
00000000
01000000
00000000
00100000
,
00000010
00010000
00000100
00001000
00000100
00100000
M000000M
00010000
,
00100000
00000000
01000000
00001000
01000000
00000000
00100000
00000000
00000100
00000000
00100000
00000010
00010000
00000000
00001000
00000000
,
00010000
00000000
00100000
01000000
00000010
00000000
00000100
00000000
00001000
00000000
00100000
00010000
M000000M
00000000
00100000
00000000
,
00001000
00000000
00000100
00010000
00000100
00000000
00001000
00000000
00100000
00000000
01000000
00100000
00010000
00000000
00000010
00000000
,
00001000
00000000
00000100
00000100
00000100
00000000
00001000
00000000
00100000
00000000
00010000
00000000
M000000M
00000000
01000000
00000000
,
00100000
00000000
00001000
01000000
00100000
00000000
00000010
00000000
00001000
00000000
00000100
00100000
00010000
00000000
00100000
00000000
,
00001000
00000000
01000000
00000100
00010000
00000000
00100000
00000000
00000100
00000000
00001000
00010000
M000000M
00000000
00000100
00000000
,
00001000
00000000
00100000
00000010
00010000
00000000
01000000
00000000
00100000
00000000
00000100
00000000
00010000
00000000
00000000
00000000
,
00001000
00000000
01000000
00010000
00001000
00100000
M000000M
00000100
,
00010000
00001000
00100000
00000010
00000100
00010000
00001000
01000000
,
00000100
00100000
00001000
00010000
00000010
00000100
M000000M
00010000
,
00000100
00001000
00010000
00000010
00000100
01000000
00001000
00100000
,
00000100
00010000
00000100
00000010
00001000
00000100
M000000M
00000100
,
00001000
00010000
00000100
00100000
00000010
00010000
00000100
00001000
,
00100000
00000100
01000000
00001000
00100000
00000100
M000000M
00000010
,
00010000
00000100
01000000
00001000
00100000
01000000
00001000
00000000
,
00100000
00000000
00000010
00001000
01000000
00000100
M000000M
00000100
,
00010000
00001000
00100000
00000010
00000100
00010000
00001000
01000000
,
00000100
00100000
00001000
00010000
00000010
00000100
M000000M
00010000
,
00000100
00001000
00010000
00000010
00000100
01000000
00001000
00100000
,
00000100
00010000
00000100
00000010
00001000
00000100
M000000M
00000100
,
00001000
00010000
00000100
00100000
00000010
00010000
00000100
00001000
,
00100000
00000100
01000000
00001000
00100000
00000100
M000000M
00000010
,
00010000
00000000
00000100
00000000
01000000
00000000
00001000
00000000
00100000
00000000
01000000
00000000
00000010
00100000
00000100
00010000
,
00000010
00100000
00000100
00010000
00000010
00100000
00000100
00010000
00000010
00100000
00000100
00010000
M000000M
00000010
00010000
00000100
,
00100000
00001000
01000000
00000100
00100000
00000010
00010000
00000100
00100000
00001000
01000000
00000000
00001000
00001000
00010000
00010000
,
00000010
00000010
01000000
01000000
00001000
00010000
00000010
01000000
00001000
00010000
00000010
00000000
M000000M
00000010
00010000
00000010
,
00010000
00001000
01000000
00001000
01000000
00000100
00010000
00000100
00010000
00001000
00100000
00000000
00000010
01000000
00000100
00100000
,
00001000
00010000
00000100
00100000
00000010
00000000
00000000
00000000
00001000
00000000
00010000
00000000
M000000M
00100000
00001000
00100000
,
00000100
00100000
00000010
00100000
00000100
00100000
00001000
00100000
00000100
00100000
00000010
00000000
00000100
01000000
00000100
00100000
,
00000100
00010000
00000100
00100000
00000100
01000000
00000100
00100000
00000100
00010000
00000100
00000000
M000000M
00010000
00001000
00010000
,
00100000
00010000
01000000
00010000
00100000
00010000
00001000
00010000
00000100
00010000
00000010
00000000
00001000
00000000
00000000
00000000
,
01000000
00000000
00000000
00000000
00010000
00000000
00100000
00000000
00000010
00000000
00000100
00000000
M000000M
01000000
00100000
01000000
,
00010000
01000000
00001000
01000000
00000100
01000000
00000010
01000000
00000100
01000000
00001000
00000000
00001000
00010000
00001000
00100000
,
00001000
01000000
00001000
00100000
00001000
00010000
00001000
00000100
00001000
00000010
00001000
00000000
M000000M
00000010
00000100
00000010
,
00001000
00000010
00010000
00000010
00100000
00000010
01000000
00000010
00100000
00000010
00010000
00000000
00010000
00000100
00010000
00001000
,
00010000
00100000
00010000
01000000
00010000
00000000
00000000
00000000
00100000
00000000
00000100
00000000
M000000M
00000010
00010000
00000010
,
00010000
00000010
00010000
00000010
00010000
00000010
00010000
00000010
00010000
00000010
00010000
00000000
01000000
00001000
01000000
00001000
,
01000000
00001000
01000000
00001000
01000000
00001000
01000000
00001000
01000000
00001000
01000000
00000000
M000000M
00000000
00000000
00000000
,
00100000
00000000
00000000
00000000
00000100
00000000
00010000
00000000
00000010
00000000
01000000
00000000
00100000
00000100
00100000
00000100
,
01000000
00000010
01000000
00000010
00010000
00001000
00010000
00001000
00100000
00000100
00100000
00000100
00100000
00000000
00000000
00000000
,
00000000
00000000
00000000
00000000
00000000
00000000
M000000M
00000100
,
00010000
01000000
00000010
01000000
00000000
00000100
00000000
00100000
,
00001000
00010000
01000000
00100000
00000000
00000010
M000000M
00000100
,
00001000
01000000
00000100
01000000
00000000
00001000
00000000
00100000
,
00010000
00000010
00000100
00000100
01000000
00001000
M000000M
00000100
,
00100000
00001000
01000000
00001000
00000000
00000010
00000000
00000100
,
00010000
00001000
01000000
01000000
00000000
00000100
M000000M
00100000
,
00000100
00010000
00000010
00001000
00000000
00000100
00000000
01000000
,
00100000
00000100
00010000
00000010
00000100
00000100
M000000M
00000100
,
00010000
01000000
00100000
00000100
00000000
01000000
00000000
00010000
,
00001000
00000010
00000010
00000100
00000000
00001000
M000000M
00100000
,
00000100
00010000
00001000
00001000
00000000
00100000
00000000
00000100
,
01000000
00000010
00100000
00000100
00001000
00000100
M000000M
00000100
,
00000010
01000000
00001000
00000100
00000000
00001000
00000000
01000000
,
00100000
00000100
00010000
00000100
00000000
00000100
M000000M
00000010
,
00001000
00100000
00001000
00010000
00000000
00000010
00000000
00000100
,
00001000
00000000
01000000
00000000
00001000
00000100
00010000
00100000
00000010
00000100
01000000
00100000
M000000M
00000000
00000100
00000000
,
00010000
00001000
00000100
01000000
00010000
00001000
01000000
00100000
,
00000010
00010000
01000000
00000100
00010000
00001000
M000000M
00000100
,
00010000
00001000
01000000
00000010
00010000
00000100
01000000
00001000
,
00000100
00010000
00001000
00100000
01000000
00010000
M000000M
00000100
,
01000000
00001000
00100000
00100000
00001000
00000100
01000000
00010000
,
00000010
00000100
00001000
00001000
00000100
00010000
M000000M
00010000
,
00000100
00100000
01000000
00001000
01000000
00010000
00100000
00000010
,
01000000
00000100
00001000
00100000
00010000
01000000
M000000M
00000100
,
00010000
00001000
00100000
00000010
00000100
00010000
00001000
01000000
,
00000100
00100000
00001000
00010000
00000010
00000100
M000000M
00010000
,
00000100
00001000
00010000
00000010
00000100
01000000
00001000
00100000
,
00000100
00010000
00000100
00000010
00001000
00000100
M000000M
00000100
,
00001000
00010000
00000100
00100000
00000010
00010000
00000100
00001000
,
00100000
00000100
01000000
00001000
00100000
00000100
M000000M
00000010
,
00010000
00000000
00000100
00000000
01000000
00000000
00001000
00000000
00100000
00000000
01000000
00000000
00000010
01000000
00001000
00010000
,
00000010
01000000
00001000
00010000
00000010
01000000
00001000
00010000
00000010
01000000
00001000
00010000
M000000M
00000010
00010000
00000100
,
00100000
00001000
01000000
00000100
00100000
00000010
00010000
00000100
00100000
00001000
01000000
00000000
00001000
00001000
00010000
00010000
,
00000010
00000010
01000000
01000000
00001000
00010000
00000010
01000000
00001000
00010000
00000010
00000000
M000000M
00000010
00010000
00000010
,
00010000
00001000
01000000
00001000
01000000
00000100
00010000
00000100
00010000
00001000
00100000
00000000
00000010
01000000
00000100
00100000
,
00001000
00010000
00000100
00100000
00000010
00000000
00000000
00000000
00001000
00000000
00010000
00000000
M000000M
00100000
00001000
00100000
,
00000100
00100000
00000010
00100000
00000100
00100000
00001000
00100000
00000100
00100000
00000010
00000000
00000100
01000000
00000100
00100000
,
00000100
00010000
00000100
00100000
00000100
01000000
00000100
00100000
00000100
00010000
00000100
00000000
M000000M
00010000
00001000
00010000
,
00100000
00010000
01000000
00010000
00100000
00010000
00001000
00010000
00000100
00010000
00000010
00000000
00001000
00000000
00000000
00000000
,
01000000
00000000
00000000
00000000
00010000
00000000
00100000
00000000
00000010
00000000
00000100
00000000
M000000M
01000000
00100000
01000000
,
00010000
01000000
00001000
01000000
00000100
01000000
00000010
01000000
00000100
01000000
00001000
00000000
00001000
00010000
00001000
00100000
,
00001000
01000000
00001000
00100000
00001000
00010000
00001000
00000100
00001000
00000010
00001000
00000000
M000000M
00000010
00000100
00000010
,
00001000
00000010
00010000
00000010
00100000
00000010
01000000
00000010
00100000
00000010
00010000
00000000
00010000
00000100
00010000
00001000
,
00010000
00100000
00010000
01000000
00010000
00000000
00000000
00000000
00100000
00000000
00000100
00000000
M000000M
00000010
00010000
00000010
,
00010000
00000010
00010000
00000010
00010000
00000010
00010000
00000010
00010000
00000010
00010000
00000000
01000000
00001000
01000000
00001000
,
01000000
00001000
01000000
00001000
01000000
00001000
01000000
00001000
01000000
00001000
01000000
00000000
M000000M
00000000
00000000
00000000
,
00100000
00000000
00000000
00000000
00000100
00000000
00010000
00000000
00000010
00000000
01000000
00000000
00100000
00000100
00100000
00000100
,
01000000
00000010
01000000
00000010
00010000
00001000
00010000
00001000
00100000
00000100
00100000
00000100
00100000
00000000
00000000
00000000
,
00000000
00000000
00000000
00000000
,
00000000
00000000
00000000
00000000
;
